8090社区

 找回密码
 注册会员
查看: 662|回复: 4

[欧美][动作]木乃伊/盗墓迷城/神鬼传奇 The.Mummy.1999.1080p.BluRay.x264.DTS-FGT 10.74GB

[复制链接]
发表于 2015-1-25 22:14:27 | 显示全部楼层 |阅读模式
导演: 斯蒂芬·索莫斯

编剧: 斯蒂芬·索莫斯 / Lloyd Fonvielle / Kevin Jarre

主演: 布兰登·费舍 / 蕾切尔·薇兹 / 约翰·汉纳 / 阿诺德·沃斯洛 / 凯文·J·奥康纳

类型: 动作 / 奇幻 / 冒险

制片国家/地区: 美国

语言: 英语 / 古埃及语 / 阿拉伯语

上映日期: 1999-05-07

片长: 125 分钟

又名: 盗墓迷城 / 神鬼传奇

木乃伊的剧情简介  ·  ·  ·  ·  ·  ·

  埃及城市哈姆纳塔是历代法老墓地,相传此处拥有法老留下的大量珍奇异宝,源源不断的人前往掘金,但却生还者寥寥。哈姆纳塔因此成为谜样的所在,获名“亡灵之城”。

  图书管理员伊芙琳(Rachel Weisz 瑞切尔·薇茨饰)偶然得到一张哈姆纳塔的地图,大为兴奋的她决定和哥哥一起去那儿考古,他们找到曾经的幸存者欧康诺(Brendan Fraser 布兰登·弗雷泽饰),三人结伴前往。

  一段惊险旅途后,伊芙琳一行与其他人终于抵达哈姆纳塔,可是最恐怖的事情发生了:三千年前赛提一世的大祭司伊莫顿犯下罪行,受到最严厉的诅咒被做成木乃伊封缄在石棺里,他的灵魂却不慎被唤醒,拥有了无比法力的伊莫顿即将血洗埃及,给世界带来无边灾难……


Video
ID                                       : 1
Format                                   : AVC
Format/Info                              : Advanced Video Codec
Format profile                           : High@L4.1
Format settings, CABAC                   : Yes
Format settings, ReFrames                : 5 frames
Codec ID                                 : V_MPEG4/ISO/AVC
Duration                                 : 2h 4mn
Bit rate                                 : 10.8 Mbps
Width                                    : 1 920 pixels
Height                                   : 816 pixels
Display aspect ratio                     : 2.35:1
Frame rate mode                          : Constant
Frame rate                               : 23.976 fps
Color space                              : YUV
Chroma subsampling                       : 4:2:0
Bit depth                                : 8 bits
Scan type                                : Progressive
Bits/(Pixel*Frame)                       : 0.288
Stream size                              : 9.21 GiB (86%)
Writing library                          : x264 core 60 r901M 58d7d06
Encoding settings                        : cabac=1 / ref=5 / deblock=1:-3:-3 / analyse=0x3:0x133 / me=umh / subme=7 / rdcmp=psy / brdo=1 / mixed_ref=1 / me_range=24 / chroma_me=1 / trellis=0 / 8x8dct=1 / cqm=2 / deadzone=6,4 / chroma_qp_offset=0 / threads=6 / nr=0 / decimate=0 / mbaff=0 / bframes=3 / b_pyramid=1 / b_adapt=1 / b_bias=0 / direct=3 / wpredb=1 / bime=1 / keyint=250 / keyint_min=25 / scenecut=40(pre) / rc=2pass / bitrate=10801 / ratetol=1.0 / rceq=\'blurCplx^(1-qComp)\' / qcomp=1.00 / qpmin=10 / qpmax=51 / qpstep=4 / cplxblur=20.0 / qblur=0.5 / ip_ratio=1.40 / pb_ratio=1.19 / aq=2:1.00
Language                                 : English
Default                                  : Yes
Forced                                   : No

Audio
ID                                       : 2
Format                                   : DTS
Format/Info                              : Digital Theater Systems
Mode                                     : 16
Format settings, Endianness              : Big
Codec ID                                 : A_DTS
Duration                                 : 2h 4mn
Bit rate mode                            : Constant
Bit rate                                 : 1 509 Kbps
Channel(s)                               : 6 channels
Channel positions                        : Front: L C R, Side: L R, LFE
Sampling rate                            : 48.0 KHz
Bit depth                                : 24 bits
Compression mode                         : Lossy
Stream size                              : 1.32 GiB (12%)
Language                                 : English
Default                                  : Yes
Forced                                   : No




游客,如果您要查看本帖隐藏内容请回复,或者 升级VIP免回复





发表于 2015-1-29 14:23:28 | 显示全部楼层
以前的片子,蛮精彩的!
回复 支持 反对

使用道具 举报

发表于 2015-2-12 14:40:02 | 显示全部楼层
经典老片 收纳了
回复 支持 反对

使用道具 举报

您需要登录后才可以回帖 登录 | 注册会员

本版积分规则

小黑屋|手机版|Archiver|8090社区 ( 黔ICP备15011498号-3 )|网站地图

GMT+8, 2019-12-16 21:33 , Processed in 0.049112 second(s), 20 queries .

Powered by Discuz! X3.4

© 2001-2017 Comsenz Inc.

快速回复 返回顶部 返回列表